<?xml version="1.0" standalone="no"?>
<!DOCTYPE svg PUBLIC "-//W3C//DTD SVG 1.1//EN" "http://www.w3.org/Graphics/SVG/1.1/DTD/svg11.dtd" >
<svg xmlns="http://www.w3.org/2000/svg">
<metadata>Generated by IcoMoon</metadata>
<defs>
<font id="icomoon" horiz-adv-x="1024">
<font-face units-per-em="1024" ascent="960" descent="-64" />
<missing-glyph horiz-adv-x="1024" />
<glyph unicode="&#x20;" horiz-adv-x="512" d="" />
<glyph unicode="&#xe900;" glyph-name="cp_font_arrow_left_long" d="M870.4 473.6h-655.002l58.675 58.701c10.010 10.010 10.010 26.189 0 36.198s-26.189 10.010-36.198 0l-102.4-102.4c-10.010-10.010-10.010-26.189 0-36.198l102.4-102.4c5.018-4.992 11.571-7.501 18.125-7.501s13.107 2.509 18.099 7.501c10.010 10.010 10.010 26.189 0 36.198l-58.701 58.701h655.002c14.131 0 25.6 11.469 25.6 25.6s-11.469 25.6-25.6 25.6z" />
<glyph unicode="&#xe901;" glyph-name="cp_font_arrow_left_short" d="M716.8 473.6h-347.802l58.675 58.701c10.010 10.010 10.010 26.189 0 36.198s-26.189 10.010-36.198 0l-102.4-102.4c-10.010-10.010-10.010-26.189 0-36.198l102.4-102.4c5.018-4.992 11.571-7.501 18.125-7.501s13.107 2.509 18.099 7.501c10.010 10.010 10.010 26.189 0 36.198l-58.701 58.701h347.802c14.131 0 25.6 11.469 25.6 25.6s-11.469 25.6-25.6 25.6z" />
<glyph unicode="&#xe902;" glyph-name="cp_font_arrow_navbar" d="M474.368 318.438l-54.298 54.323 75.264 75.238-75.264 75.238 54.298 54.323 129.562-129.562z" />
<glyph unicode="&#xe903;" glyph-name="cp_font_arrow_right_long" d="M888.499 466.099l-102.4 102.4c-10.010 10.010-26.189 10.010-36.198 0s-10.010-26.189 0-36.198l58.701-58.701h-655.002c-14.131 0-25.6-11.469-25.6-25.6s11.469-25.6 25.6-25.6h655.002l-58.675-58.701c-10.010-10.010-10.010-26.189 0-36.198 4.992-4.992 11.546-7.501 18.074-7.501s13.107 2.509 18.099 7.501l102.4 102.4c10.010 10.010 10.010 26.189 0 36.198z" />
<glyph unicode="&#xe904;" glyph-name="cp_font_arrow_right_short" d="M734.899 466.099l-102.4 102.4c-10.010 10.010-26.189 10.010-36.198 0s-10.010-26.189 0-36.198l58.701-58.701h-347.802c-14.131 0-25.6-11.469-25.6-25.6s11.469-25.6 25.6-25.6h347.802l-58.675-58.701c-10.010-10.010-10.010-26.189 0-36.198 4.992-4.992 11.546-7.501 18.074-7.501s13.107 2.509 18.099 7.501l102.4 102.4c10.010 10.010 10.010 26.189 0 36.198z" />
<glyph unicode="&#xe905;" glyph-name="cp_font_contact" d="M512 115.2c-176.461 0-320 143.539-320 320s143.539 320 320 320 320-143.539 320-320-143.539-320-320-320zM512 704c-148.224 0-268.8-120.576-268.8-268.8s120.576-268.8 268.8-268.8 268.8 120.576 268.8 268.8-120.576 268.8-268.8 268.8zM434.816 256.051c-13.44-0.614-24.422 4.378-33.28 14.336-4.25 4.813-6.144 10.189-3.635 16.41 2.97 7.322 5.786 14.72 9.37 21.734 24.397 47.181 49.050 94.259 73.421 141.491 1.766 3.43 1.997 7.654 2.944 11.546-3.968-0.435-8.525 0.256-11.827-1.459-17.664-9.242-35.098-18.97-52.506-28.749-5.146-2.893-10.138-2.227-14.182 2.79-3.942 4.89-2.227 8.678 2.074 12.365 39.885 34.278 85.043 57.242 137.498 64.742 13.184 1.869 24.858-1.536 34.688-10.598 7.194-6.605 9.754-14.541 5.862-23.834-2.97-7.066-5.965-14.182-9.549-20.966-24.499-46.643-49.203-93.184-73.626-139.853-1.664-3.174-1.766-7.168-2.586-10.778 3.942 0.23 8.576-0.794 11.75 0.87 19.507 10.47 38.733 21.402 57.882 32.512 6.195 3.61 13.85 2.15 17.254-4.198 2.355-4.48 0.742-7.731-2.688-11.034-22.605-21.76-48.845-37.888-77.517-50.278-22.784-9.805-46.438-16.026-71.347-17.050zM570.266 558.848c3.072 0.205 6.17 0.179 9.216 0.614 20.48 3.046 36.736 12.211 44.314 32.538 9.242 24.704-2.918 45.312-28.902 49.536-4.301 0.691-8.781 1.101-13.107 0.768-23.782-1.792-43.034-11.162-52.634-34.33-8.32-20.122 0.512-38.989 21.069-45.85 6.4-2.125 13.261-2.688 19.917-3.994 0.026 0.23 0.077 0.461 0.128 0.717z" />
<glyph unicode="&#xe906;" glyph-name="cp_font_duplicate" d="M768 601.6c-14.157 0-25.6-11.469-25.6-25.6v-358.4c0-14.106-11.469-25.6-25.6-25.6h-358.4c-14.131 0-25.6 11.494-25.6 25.6v537.6c0 14.106 11.469 25.6 25.6 25.6h179.2c14.157 0 25.6 11.469 25.6 25.6s-11.443 25.6-25.6 25.6h-179.2c-42.342 0-76.8-34.458-76.8-76.8-42.342 0-76.8-34.458-76.8-76.8v-537.6c0-42.342 34.458-76.8 76.8-76.8h358.4c42.342 0 76.8 34.458 76.8 76.8 42.342 0 76.8 34.458 76.8 76.8v358.4c0 14.131-11.443 25.6-25.6 25.6zM640 115.2h-358.4c-14.131 0-25.6 11.494-25.6 25.6v537.6c0 14.106 11.469 25.6 25.6 25.6v-486.4c0-42.342 34.458-76.8 76.8-76.8h307.2c0-14.106-11.469-25.6-25.6-25.6zM793.6 652.8h-128v-128h-51.2v128h-128v51.2h128v128h51.2v-128h128v-51.2z" />
<glyph unicode="&#xe907;" glyph-name="cp_font_enterprise" d="M768 140.8h-153.6c-14.131 0-25.6 11.469-25.6 25.6v128h-179.2v-128c0-14.131-11.469-25.6-25.6-25.6h-153.6c-14.131 0-25.6 11.469-25.6 25.6v537.6c0 70.579 57.421 128 128 128h332.8c70.579 0 128-57.421 128-128v-537.6c0-14.131-11.469-25.6-25.6-25.6zM640 192h102.4v512c0 42.342-34.458 76.8-76.8 76.8h-332.8c-42.342 0-76.8-34.458-76.8-76.8v-512h102.4v128c0 14.131 11.469 25.6 25.6 25.6h230.4c14.131 0 25.6-11.469 25.6-25.6v-128zM460.8 601.6h-102.4v102.4h102.4v-102.4zM640 704h-102.4v-102.4h102.4v102.4zM640 524.8h-102.4v-102.4h102.4v102.4zM460.8 524.8h-102.4v-102.4h102.4v102.4z" />
<glyph unicode="&#xe908;" glyph-name="cp_font_export" d="M729.6 140.8h-435.2c-42.342 0-76.8 34.458-76.8 76.8v435.2c0 42.342 34.458 76.8 76.8 76.8h230.4c14.131 0 25.6-11.469 25.6-25.6s-11.469-25.6-25.6-25.6h-230.4c-14.106 0-25.6-11.494-25.6-25.6v-435.2c0-14.106 11.494-25.6 25.6-25.6h435.2c14.106 0 25.6 11.494 25.6 25.6v230.4c0 14.131 11.469 25.6 25.6 25.6s25.6-11.469 25.6-25.6v-230.4c0-42.342-34.458-76.8-76.8-76.8zM627.2 729.6c-14.131 0-25.6-11.469-25.6-25.6s11.469-25.6 25.6-25.6h91.802l-212.301-212.301c-10.010-10.010-10.010-26.189 0-36.198 4.992-4.992 11.546-7.501 18.099-7.501s13.107 2.509 18.099 7.501l212.301 212.301v-91.802c0-14.131 11.469-25.6 25.6-25.6s25.6 11.469 25.6 25.6v179.2h-179.2z" />
<glyph unicode="&#xe909;" glyph-name="cp_font_filter_checked" d="M486.4 332.8c-6.758 0-13.286 2.662-18.099 7.501l-51.2 51.2c-10.010 10.010-10.010 26.189 0 36.198s26.189 10.010 36.198 0l27.494-27.494 85.786 150.093c6.989 12.262 22.63 16.563 34.918 9.523 12.262-7.014 16.538-22.656 9.523-34.918l-102.4-179.2c-3.942-6.938-10.931-11.622-18.816-12.672-1.126-0.154-2.278-0.23-3.405-0.23z" />
<glyph unicode="&#xe90a;" glyph-name="cp_font_filter" d="M817.254 713.805c-3.942 9.549-13.312 15.795-23.654 15.795h-563.2c-10.342 0-19.712-6.246-23.654-15.795-3.968-9.574-1.766-20.582 5.555-27.904l274.099-274.099v-245.402c0-14.131 11.443-25.6 25.6-25.6s25.6 11.469 25.6 25.6v245.402l274.099 274.099c7.322 7.322 9.523 18.33 5.555 27.904zM512 458.598l-219.802 219.802h439.603l-219.802-219.802z" />
<glyph unicode="&#xe90b;" glyph-name="cp_font_intervention_detail" d="M691.2 89.6h-358.4c-42.342 0-76.8 34.458-76.8 76.8v537.6c0 42.342 34.458 76.8 76.8 76.8h307.2c6.784 0 13.312-2.688 18.099-7.501l102.4-102.4c4.813-4.787 7.501-11.315 7.501-18.099v-486.4c0-42.342-34.458-76.8-76.8-76.8zM332.8 729.6c-14.106 0-25.6-11.494-25.6-25.6v-537.6c0-14.106 11.494-25.6 25.6-25.6h358.4c14.106 0 25.6 11.494 25.6 25.6v475.802l-87.398 87.398h-296.602zM640 448h-307.2v51.2h307.2v-51.2zM563.2 422.4h-230.4v-51.2h230.4v51.2zM588.8 345.6h-256v-51.2h256v51.2zM486.4 268.8h-153.6v-51.2h153.6v51.2z" />
<glyph unicode="&#xe90c;" glyph-name="cp_font_intervention_new" d="M678.4 76.8h-358.4c-42.342 0-76.8 34.458-76.8 76.8v537.6c0 42.342 34.458 76.8 76.8 76.8h179.2c14.157 0 25.6-11.469 25.6-25.6s-11.443-25.6-25.6-25.6h-179.2c-14.131 0-25.6-11.494-25.6-25.6v-537.6c0-14.106 11.469-25.6 25.6-25.6h358.4c14.131 0 25.6 11.494 25.6 25.6v358.4c0 14.131 11.443 25.6 25.6 25.6s25.6-11.469 25.6-25.6v-358.4c0-42.342-34.458-76.8-76.8-76.8zM755.2 640h-128v128h-51.2v-128h-128v-51.2h128v-128h51.2v128h128v51.2z" />
<glyph unicode="&#xe90d;" glyph-name="cp_font_intervention_waiting" d="M512 755.2c-176.717 0-320-143.283-320-320s143.283-320 320-320 320 143.283 320 320-143.283 320-320 320zM640 435.2h-128v230.4h51.2v-179.2h76.8v-51.2z" />
<glyph unicode="&#xe90e;" glyph-name="cp_font_logo_cp" d="M637.133 233.242c-230.349-13.261-474.752-76.186-474.752-76.186v463.181l208.486 141.056 184.883-124.928h198.682l-383.616 259.635-319.616-215.603v-680.397c0 0 214.093 84.915 574.643 116.685 134.221 11.827 346.778 9.011 346.957 9.011v116.25c0 0-187.802-0.333-335.667-8.704z" />
<glyph unicode="&#xe90f;" glyph-name="cp_font_menu" d="M382.438 485.632l54.323 54.298 75.238-75.264 75.238 75.264 54.323-54.298-129.562-129.562z" />
<glyph unicode="&#xe910;" glyph-name="cp_font_modify" d="M691.2 89.6h-358.4c-42.342 0-76.8 34.458-76.8 76.8v537.6c0 42.342 34.458 76.8 76.8 76.8h307.2c10.342 0 19.686-6.246 23.654-15.795 3.968-9.574 1.766-20.582-5.555-27.904l-171.699-171.699v-66.202h66.202l171.699 171.699c7.322 7.347 18.278 9.549 27.904 5.555 9.549-3.968 15.795-13.312 15.795-23.654v-486.4c0-42.342-34.458-76.8-76.8-76.8zM332.8 729.6c-14.106 0-25.6-11.494-25.6-25.6v-537.6c0-14.106 11.494-25.6 25.6-25.6h358.4c14.106 0 25.6 11.494 25.6 25.6v424.602l-135.501-135.501c-4.787-4.813-11.315-7.501-18.099-7.501h-102.4c-14.131 0-25.6 11.469-25.6 25.6v102.4c0 6.784 2.688 13.312 7.501 18.099l135.501 135.501h-245.402z" />
<glyph unicode="&#xe911;" glyph-name="cp_font_planning" d="M691.2 729.6h-76.8v51.2c0 14.131-11.469 25.6-25.6 25.6s-25.6-11.469-25.6-25.6v-51.2h-102.4v51.2c0 14.131-11.469 25.6-25.6 25.6s-25.6-11.469-25.6-25.6v-51.2h-76.8c-42.342 0-76.8-34.458-76.8-76.8v-435.2c0-42.342 34.458-76.8 76.8-76.8h358.4c42.342 0 76.8 34.458 76.8 76.8v435.2c0 42.342-34.458 76.8-76.8 76.8zM716.8 217.6c0-14.106-11.494-25.6-25.6-25.6h-358.4c-14.106 0-25.6 11.494-25.6 25.6v435.2c0 14.106 11.494 25.6 25.6 25.6h76.8v-25.6c0-14.131 11.469-25.6 25.6-25.6s25.6 11.469 25.6 25.6v25.6h102.4v-25.6c0-14.131 11.469-25.6 25.6-25.6s25.6 11.469 25.6 25.6v25.6h76.8c14.106 0 25.6-11.494 25.6-25.6v-435.2z" />
<glyph unicode="&#xe912;" glyph-name="cp_font_refuse" d="M548.198 409.6l250.701 250.701c10.010 10.010 10.010 26.189 0 36.198s-26.189 10.010-36.198 0l-250.701-250.701-250.701 250.701c-10.010 10.010-26.189 10.010-36.198 0s-10.010-26.189 0-36.198l250.701-250.701-250.701-250.701c-10.010-10.010-10.010-26.189 0-36.198 4.992-4.992 11.546-7.501 18.099-7.501s13.107 2.509 18.099 7.501l250.701 250.701 250.701-250.701c4.992-4.992 11.546-7.501 18.099-7.501s13.107 2.509 18.099 7.501c10.010 10.010 10.010 26.189 0 36.198l-250.701 250.701z" />
<glyph unicode="&#xe913;" glyph-name="cp_font_validate" d="M435.2 115.2c-6.067 0-12.006 2.15-16.64 6.17l-179.2 153.6c-10.752 9.19-12.006 25.37-2.765 36.096 9.19 10.726 25.37 11.955 36.070 2.765l157.030-134.579 316.851 487.475c7.731 11.853 23.578 15.206 35.43 7.501s15.232-23.552 7.526-35.405l-332.8-512c-4.019-6.195-10.522-10.342-17.818-11.392-1.254-0.154-2.483-0.23-3.686-0.23z" />
</font>
</defs>
</svg>
